Rogue S03E14 720p WEB h264-HatchetGear[rartv]

seeders: 3
leechers: 1
updated:
Added by z0n3212.59M in TV
Torrent verified. Downloaded 1,973 times.

DownloadFast Safe Anonymous
movies, software, shows...
  • View all Rogue episodes
  • Episode title: Halfway Burnt
  • Episode: S03E14
  • Air date: 13 April 2016
  • IMDb link: 2397255
  • TVmaze link: Rogue
  • Original run: 03 April 2013 — Present
  • Summary:

    Grace, a morally and emotionally-conflicted undercover detective, is tormented by the possibility that her own actions contributed to her son's mysterious death. In her quest for the truth, Grace finds herself striking out on her own and falling deeper into the city's most powerful and dangerous crime family. As Grace struggles to become the wife and mother her family now needs, her life is further complicated by a forbidden relationship with crime boss Jimmy Laszlo. In order to stay alive, Grace needs to help Jimmy find the traitor in his midst, while knowing he may have played a part in her tragedy.

    Written by SkyMtn118.28K
Available in versions: 1080p720p480pHDTVWEBRipx265
Rogue S03E14 720p WEB h264-HatchetGear[rartv] (Size: 1.66 GB)
  rarbg.com.txt 34 bytes
  rogue.s03e14.720p.web.h264-hatchetgear.jpg 1.36 KB
  rogue.s03e14.720p.web.h264-hatchetgear.mkv 1.66 GB
  rogue.s03e14.720p.web.h264-hatchetgear.nfo 8.18 KB

Description


http://rarbg.to
Rogue.S03E14.720p.WEB.h264-HatchetGear[rartv]

image
Screens :

image
Mediainfo :

Video
ID : 1
Format : AVC
Format/Info : Advanced Video Codec
Format profile : [email protected]
Format settings, CABAC : No
Format settings, ReFrames : 2 frames
Codec ID : V_MPEG4/ISO/AVC
Duration : 54mn 57s
Bit rate : 3 945 Kbps
Width : 1 280 pixels
Height : 718 pixels
Display aspect ratio : 16:9
Frame rate mode : Constant
Frame rate : 23.976 (23976/1000) fps
Color space : YUV
Chroma subsampling : 4:2:0
Bit depth : 8 bits
Scan type : Progressive
Bits/(Pixel*Frame) : 0.179
Stream size : 1.51 GiB (91%)
Language : English
Default : Yes
Forced : No
Color range : Limited
Color primaries : BT.709
Transfer characteristics : BT.709
Matrix coefficients : BT.709

Audio
ID : 2
Format : AC-3
Format/Info : Audio Coding 3
Mode extension : CM (complete main)
Format settings, Endianness : Big
Codec ID : A_AC3
Duration : 54mn 57s
Bit rate mode : Constant
Bit rate : 384 Kbps
Channel(s) : 6 channels
Channel positions : Front: L C R, Side: L R, LFE
Sampling rate : 48.0 KHz
Frame rate : 31.250 fps (1536 spf)
Compression mode : Lossy
Stream size : 151 MiB (9%)
Language : English
Default : Yes
Forced : No

Related Torrents

torrent name size files age seed leech

Sharing Widget


Download torrent
1.66 GB
seeders:3
leechers:1
Rogue S03E14 720p WEB h264-HatchetGear[rartv]



To share this torrent use the code below and insert it into comments, status messages, forum posts or your signature.

Torrent: Rogue S03E14 720p WEB h264-HatchetGear[rartv]

Trackers

tracker name
udp://tracker.openbittorrent.com:80/announce
udp://tracker.publicbt.com:80/announce
udp://tracker.coppersurfer.tk:6969/announce
udp://9.rarbg.me:2710/announce
udp://glotorrents.pw:6969/announce
http://tracker.trackerfix.com/announce
udp://9.rarbg.to:2710/announce
udp://tracker.opentrackr.org:1337/announce
µTorrent compatible trackers list

Locations

name
KickassTorrents
Torrent hash: CEE0FC387F47BC94AACC8E58359F5F92E4DCFBB1

Top Comments

4
Alpha_Flight32.72K
the actresses name is Sarah Carter wavethumb_up
3
holydivr18.97K
audio: 10video: 10
Thanks. This is a hard to find show. Also, the woman who plays Harper? I love her.

All Comments

audio
9/10
video
9/10
please, leave only comments related to that torrent
Sign In

audio: 9video: 9
Great quality.Thanks.
audio: 9video: 9
Thank you! Great quality!
audio: 9video: 9
Thanks z0n3212.59M

great copy and fast downloadclap

thumb_up
I'm confused. There are only 10 episodes in S03, and S04 is out.
I'm confused. There are only 10 episodes in S03, and S04 is out.
audio: 10video: 10
thank you so much excellent show could you please upload E13
Show More All

User Opinions

BJthe1DJ98.85K, holydivr18.97K, techscott11.73K, HalfMelted11.19K, TVfreak839856, SP12AY9819, joss0108214, bazingatv6006, imtheniceone2109, chuckels432152 ... And 29 more
icchok20
Report a bug Open chat
Sitemap