Rogue S03E15 720p WEB h264-HatchetGear[rartv]

seeders: 8
leechers: 3
updated:
Added by z0n3212.58M in TV
Torrent verified. Downloaded 5,092 times.

DownloadFast Safe Anonymous
movies, software, shows...
  • View all Rogue episodes
  • Episode title: The Dime Tour
  • Episode: S03E15
  • Air date: 20 April 2016
  • IMDb link: 2397255
  • TVmaze link: Rogue
  • Original run: 03 April 2013 — Present
  • Summary:

    Grace, a morally and emotionally-conflicted undercover detective, is tormented by the possibility that her own actions contributed to her son's mysterious death. In her quest for the truth, Grace finds herself striking out on her own and falling deeper into the city's most powerful and dangerous crime family. As Grace struggles to become the wife and mother her family now needs, her life is further complicated by a forbidden relationship with crime boss Jimmy Laszlo. In order to stay alive, Grace needs to help Jimmy find the traitor in his midst, while knowing he may have played a part in her tragedy.

    Written by SkyMtn118.18K
Available in versions: 1080p720p480pHDTVWEBRipx265
Rogue S03E15 720p WEB h264-HatchetGear[rartv] (Size: 1.59 GB)
  rarbg.com.txt 34 bytes
  rogue.s03e15.720p.web.h264-hatchetgear.jpg 1.36 KB
  rogue.s03e15.720p.web.h264-hatchetgear.mkv 1.59 GB
  rogue.s03e15.720p.web.h264-hatchetgear.nfo 8.18 KB

Description


http://rarbg.to
Rogue.S03E15.720p.WEB.h264-HatchetGear[rartv]

image
Screens :

image
Mediainfo :

Video
ID : 1
Format : AVC
Format/Info : Advanced Video Codec
Format profile : [email protected]
Format settings, CABAC : No
Format settings, ReFrames : 2 frames
Codec ID : V_MPEG4/ISO/AVC
Duration : 50mn 58s
Bit rate : 4 068 Kbps
Width : 1 280 pixels
Height : 718 pixels
Display aspect ratio : 16:9
Frame rate mode : Constant
Frame rate : 23.976 (23976/1000) fps
Color space : YUV
Chroma subsampling : 4:2:0
Bit depth : 8 bits
Scan type : Progressive
Bits/(Pixel*Frame) : 0.185
Stream size : 1.45 GiB (91%)
Language : English
Default : Yes
Forced : No
Color range : Limited
Color primaries : BT.709
Transfer characteristics : BT.709
Matrix coefficients : BT.709

Audio
ID : 2
Format : AC-3
Format/Info : Audio Coding 3
Mode extension : CM (complete main)
Format settings, Endianness : Big
Codec ID : A_AC3
Duration : 50mn 58s
Bit rate mode : Constant
Bit rate : 384 Kbps
Channel(s) : 6 channels
Channel positions : Front: L C R, Side: L R, LFE
Sampling rate : 48.0 KHz
Frame rate : 31.250 fps (1536 spf)
Compression mode : Lossy
Stream size : 140 MiB (9%)
Language : English
Default : Yes
Forced : No

Text
ID : 3
Format : UTF-8
Codec ID : S_TEXT/UTF8
Codec ID/Info : UTF-8 Plain Text
Duration : 49mn 43s
Bit rate : 98 bps
Count of elements : 890
Stream size : 35.8 KiB (0%)
Language : English
Default : Yes
Forced : No

Related Torrents

torrent name size files age seed leech

Sharing Widget


Download torrent
1.59 GB
seeders:8
leechers:3
Rogue S03E15 720p WEB h264-HatchetGear[rartv]



To share this torrent use the code below and insert it into comments, status messages, forum posts or your signature.

Torrent: Rogue S03E15 720p WEB h264-HatchetGear[rartv]

Trackers

tracker name
udp://tracker.openbittorrent.com:80/announce
udp://tracker.publicbt.com:80/announce
udp://tracker.coppersurfer.tk:6969/announce
udp://glotorrents.pw:6969/announce
udp://tracker.opentrackr.org:1337/announce
µTorrent compatible trackers list

Locations

name
KickassTorrents
Torrent hash: A4C97B099BF4E8159E7EF0413349E49B988760EE

All Comments

audio
9/10
video
9/10
please, leave only comments related to that torrent
Sign In

audio: 9video: 9
Thank you! Great quality!
audio: 9video: 9
Thanks z0n321
Been trying for 5 hours to play this. After 3 players and dozens of codecs. Nothing...
Use the latest VLC player, works for me

audio: 10video: 10
thank you great work could you please get s03e13 thanks

User Opinions

BJthe1DJ98.31K, HalfMelted11.18K, SP12AY9819, bazingatv5982, msjordan3648, fredrock461481, Tamz_Kal1334, lancer663211, dustclown151, chuckels432152 ... And 29 more
Report a bug Open chat
Sitemap