Rogue S03E20 720p WEB h264-WNN[rartv]

seeders: 7
leechers: 2
updated:
Added by z0n3212.59M in TV
Torrent verified. Downloaded 932 times.

DownloadFast Safe Anonymous
movies, software, shows...
  • View all Rogue episodes
  • Episode title: A Piece of Wood
  • Episode: S03E20
  • Air date: 25 May 2016
  • IMDb link: 2397255
  • TVmaze link: Rogue
  • Original run: 03 April 2013 — Present
  • Summary:

    Grace, a morally and emotionally-conflicted undercover detective, is tormented by the possibility that her own actions contributed to her son's mysterious death. In her quest for the truth, Grace finds herself striking out on her own and falling deeper into the city's most powerful and dangerous crime family. As Grace struggles to become the wife and mother her family now needs, her life is further complicated by a forbidden relationship with crime boss Jimmy Laszlo. In order to stay alive, Grace needs to help Jimmy find the traitor in his midst, while knowing he may have played a part in her tragedy.

    Written by SkyMtn118.29K
Available in versions: 1080p720p480pHDTVWEBRipx265
Rogue S03E20 720p WEB h264-WNN[rartv] (Size: 1.73 GB)
  rarbg.com.txt 34 bytes
  Rogue.S03E20.720p.WEB.h264-WNN.mkv 1.73 GB
  Rogue.S03E20.720p.WEB.h264-WNN.nfo 8.89 KB

Description


http://rarbg.to
Rogue.S03E20.720p.WEB.h264-WNN[rartv]

image
Screens :

image
Mediainfo :

Video
ID : 1
Format : AVC
Format/Info : Advanced Video Codec
Format profile : [email protected]
Format settings, CABAC : No
Format settings, ReFrames : 2 frames
Codec ID : V_MPEG4/ISO/AVC
Duration : 56mn 49s
Bit rate : 3 976 Kbps
Width : 1 280 pixels
Height : 718 pixels
Display aspect ratio : 16:9
Frame rate mode : Constant
Frame rate : 23.976 (23976/1000) fps
Color space : YUV
Chroma subsampling : 4:2:0
Bit depth : 8 bits
Scan type : Progressive
Bits/(Pixel*Frame) : 0.180
Stream size : 1.58 GiB (91%)
Language : English
Default : Yes
Forced : No
Color range : Limited
Color primaries : BT.709
Transfer characteristics : BT.709
Matrix coefficients : BT.709

Audio
ID : 2
Format : AC-3
Format/Info : Audio Coding 3
Mode extension : CM (complete main)
Format settings, Endianness : Big
Codec ID : A_AC3
Duration : 56mn 49s
Bit rate mode : Constant
Bit rate : 384 Kbps
Channel(s) : 6 channels
Channel positions : Front: L C R, Side: L R, LFE
Sampling rate : 48.0 KHz
Frame rate : 31.250 fps (1536 spf)
Compression mode : Lossy
Stream size : 156 MiB (9%)
Language : English
Default : Yes
Forced : No

Text #1
ID : 3
Format : UTF-8
Codec ID : S_TEXT/UTF8
Codec ID/Info : UTF-8 Plain Text
Duration : 53mn 41s
Bit rate : 59 bps
Count of elements : 752
Stream size : 23.4 KiB (0%)
Title : Stripped
Language : English
Default : No
Forced : No

Text #2
ID : 4
Format : UTF-8
Codec ID : S_TEXT/UTF8
Codec ID/Info : UTF-8 Plain Text
Duration : 55mn 31s
Bit rate : 61 bps
Count of elements : 814
Stream size : 24.8 KiB (0%)
Title : SDH
Language : English
Default : No
Forced : No

Related Torrents

torrent name size files age seed leech

Sharing Widget


Download torrent
1.73 GB
seeders:7
leechers:2
Rogue S03E20 720p WEB h264-WNN[rartv]



To share this torrent use the code below and insert it into comments, status messages, forum posts or your signature.

Torrent: Rogue S03E20 720p WEB h264-WNN[rartv]

Trackers

tracker name
http://tracker.aletorrenty.pl:2710/announce
udp://tracker.openbittorrent.com:80/announce
http://retracker.krs-ix.ru/announce
udp://tracker.coppersurfer.tk:6969/announce
udp://glotorrents.pw:6969/announce
http://tracker2.wasabii.com.tw:6969/announce
http://tracker.files.fm:6969/announce
udp://tracker.opentrackr.org:1337/announce
µTorrent compatible trackers list

Locations

name
KickassTorrents
Torrent hash: 2CEF766F1AC459FFED6B58B15E35DCCA61B03054

All Comments

audio
9/10
video
9/10
please, leave only comments related to that torrent
Sign In

audio: 9video: 9
Great quality.Thanks.
audio: 9video: 8
Thank you!
thank you for this 264 version.
audio: 10video: 10
thank you so much for your work

User Opinions

BJthe1DJ98.86K, joss0108249, bazingatv6006, iggymac5607, GNadler3407, Snoopy811935, NerriA1409, Killerbinge983, dobosroni309, SpaceGuy190 ... And 2 more
Report a bug Open chat
Sitemap